#TITLE:Libertalia;
#SUBTITLE:;
#ARTIST:Running Wild;
#TITLETRANSLIT:;
#SUBTITLETRANSLIT:;
#ARTISTTRANSLIT:;
#CREDIT:;
#BANNER:Libertalia-ba.jpg;
#BACKGROUND:Libertalia-bg.jpg;
#LYRICSPATH:;
#CDTITLE:Mus1c.png;
#MUSIC:Running Wild - Libertalia.mp3;
#OFFSET:0.000;
#SAMPLESTART:116.000;
#SAMPLELENGTH:13.000;
#SELECTABLE:YES;
#BPMS:0.000=150.920;
#STOPS:;
#BGCHANGES:;
// cache tags:
#FIRSTBEAT:0.500;
#LASTBEAT:565.000;
#SONGFILENAME:Songs/nhac/Libertalia/Libertalia.sm;
#HASMUSIC:1;
#HASBANNER:1;
#MUSICLENGTH:225.836;
// end cache tags

//---------------dance-single - ----------------
#NOTES:
     dance-single:
     :
     Challenge:
     12:
     1.000,1.000,1.000,0.549,1.000,1413.000,448.000,124.000,0.000,31.000:
0000
0000
0110
0000
1010
0000
1000
0100
0010
0000
0001
0010
1000
0100
0010
0001
,
0010
0000
0100
0000
0000
0000
0000
0000
1100
0000
0000
0000
0001
0000
0010
0000
0100
0000
1000
0000
0100
0010
0100
0000
2002
0000
0000
0000
0000
0000
0000
0000
,
3113
0000
0000
0000
0101
0000
0000
0010
1000
0010
1000
0011
0000
0001
0010
0100
,
0010
1000
0001
0000
1000
0100
0010
0001
0010
0001
0010
0001
0010
0100
1000
0100
,
0010
0001
0010
0101
0000
0101
0010
0100
0010
0100
0000
0010
1000
0100
0010
0001
,
0010
0100
0000
1010
0000
1100
0001
0010
0100
1000
0100
0000
0220
0000
0000
0000
,
1331
0000
0000
0000
0110
0000
0000
0100
1000
0100
0000
0011
0000
0011
0000
0010
,
0100
0010
0000
1001
0000
1001
0000
0010
1000
0010
0000
1100
0000
2200
0000
0000
,
0000
3300
0011
0000
1010
0000
0010
1000
0100
0000
0001
0010
1000
0100
0010
0001
,
0100
0000
0011
0000
1100
0000
0001
0010
0100
1000
0100
0010
2002
0000
0000
0000
,
3113
0000
0000
0000
1001
0000
0100
1000
0010
0000
1000
0010
0001
0100
1000
0100
,
0010
0100
0000
1000
0000
0022
0033
0220
0330
2200
3300
0220
0330
0022
0000
0000
,
0000
0033
0000
1100
0000
1100
0010
0001
0100
0010
0000
1000
0100
0010
1000
0100
,
0010
1000
0000
0101
0000
0110
1000
0001
0010
1000
0010
0000
0220
0000
0000
0000
,
1331
0000
0000
0000
1001
0000
0000
1000
1000
1000
0000
0110
0000
0110
0000
0010
,
0010
0010
0000
1100
0000
1100
0000
1000
1000
1000
0000
0110
0000
0202
0000
0000
,
0000
0303
1010
0100
0011
0100
1010
0100
,
0001
1010
0110
0001
0110
1000
0011
0100
,
1000
0110
1100
0001
0110
1000
0101
0010
,
1000
0100
0011
1001
0110
0001
1100
0010
,
0100
0001
1010
0100
1010
0100
1010
0001
,
0010
1001
1001
0010
1100
0010
1100
0001
,
0100
0110
1010
0001
1001
0010
0110
1000
,
0100
0011
1010
0001
1100
0010
1001
0100
,
0010
0100
1001
0010
1001
0100
1001
0010
,
0110
0110
0110
1000
0110
0001
0110
0001
,
0010
0100
0011
0100
0011
0100
0011
1000
,
0010
1100
1100
0001
0110
0100
1001
0100
,
0010
0100
1010
0001
1010
0001
1010
0100
,
1000
0110
0110
0010
1001
0100
1010
0001
,
0010
0100
0101
0100
1010
0001
0110
1000
,
0100
1010
1010
0001
0101
0010
1100
0001
,
0010
1000
0110
0001
1100
0010
0101
0010
,
1100
0001
0110
0001
0110
1000
0011
0100
,
0001
1000
0011
0101
0011
0100
1001
0100
,
0001
1000
0110
1100
0110
0001
1001
0010
,
0001
1000
0110
0001
0110
1000
0110
0001
,
0010
1100
0011
1000
0110
0001
0110
1000
,
0010
0100
0011
0110
1100
0010
1001
0100
,
0010
1000
1100
0110
0011
1000
0110
0001
,
0010
0001
1100
1000
0011
0001
0110
0010
,
1001
0110
1001
0100
0011
0001
1100
1000
,
1000
1000
0110
0010
1100
1000
0101
0001
,
0001
0110
1010
1000
0011
0010
1100
0100
,
0100
0100
1010
1000
0110
0010
0101
0001
,
0001
1100
1100
0100
1001
0001
1010
1000
,
1000
1000
0011
0001
1010
1000
0110
0100
,
0100
0011
0011
0010
1001
1000
0101
0101
,
0101
0000
0101
0000
0010
0001
0010
0001
0100
1000
0100
1000
0001
0010
0001
0010
,
1000
0001
1000
0001
0100
0010
0001
0010
0100
1000
0100
0010
0100
0001
1000
0010
,
0100
0001
0010
1000
0001
0010
0100
0010
0001
0100
0010
1000
0001
0100
0010
0001
,
1000
0100
0010
0001
0100
0010
1000
0001
0100
0010
1000
0001
0010
0100
0001
0010
,
1000
0100
1000
0001
0100
0010
0100
0010
0001
1000
0001
1000
0100
0001
0100
0001
,
0100
0010
0100
0010
0100
1000
0001
0010
0100
1000
0001
0010
0100
1000
0001
0010
,
0100
0001
1000
0100
1000
0001
0100
1000
0010
0100
0001
1000
0010
0100
0001
0010
,
0100
1000
0001
0100
1000
0010
0100
1000
0100
0010
0001
0010
0100
0010
0001
1000
,
0100
1000
0110
0000
0110
0000
1000
0100
1000
0000
0100
0010
0001
0010
0100
1000
,
0100
0000
0101
0000
0110
0000
0001
0010
0100
1000
0010
0001
0220
0000
0000
0000
,
1331
0000
0000
0000
1100
0000
0001
0010
0001
0000
1000
0100
0010
0001
0010
1000
,
0100
0001
0000
0100
0000
0220
0330
0202
0303
2020
3030
2002
3003
0220
0000
0000
,
0000
0330
0000
0101
0000
0101
1000
0100
1000
0100
0000
0010
0100
0010
0100
0001
,
0010
0100
0000
1100
0000
1100
0010
0100
0001
0010
0100
0000
2002
0000
0000
0000
,
3113
0000
0000
0000
0011
0000
0000
0100
0100
0100
0000
1100
0000
1100
0000
0001
,
0001
0001
0000
1001
0000
1001
0000
0010
0010
0010
0000
1010
0000
2020
0000
0000
,
0000
3030
0000
0000
1100
0000
0001
0000
0110
0000
0110
0000
0101
0000
1000
0000
,
0011
0101
1100
0001
1010
0011
1010
0100
,
1100
0011
1010
0001
0110
1001
0101
0010
,
1100
0000
0101
0000
0101
0000
1000
0000
0011
0000
0011
0000
1010
0000
0000
1001
,
0110
0110
1100
0001
1001
1100
0101
0010
,
0011
0110
1001
0100
0110
1100
1010
0001
,
0101
0011
1001
0010
1100
0101
1010
0100
,
0011
1100
0110
0001
1001
0011
1100
0011
,
0011
0011
1010
1000
1010
0010
0011
0001
,
1001
1001
1001
1000
1010
0010
0110
0100
,
0100
0100
0101
0001
0101
0100
1100
1000
,
1000
1010
1010
0010
0110
0100
0101
0001
,
0001
0001
1001
1000
1100
0100
0110
0010
,
0010
0011
0011
0010
0110
0100
1100
1000
,
1000
1000
1001
0001
0011
0010
0110
0100
,
0100
0000
0100
0011
0100
0011
0100
0000
1000
0110
1000
0110
1000
0110
0001
0110
,
0101
0101
0101
0101
0101
0100
0001
0100
0010
0100
0010
0100
1000
0001
1000
0001
,
0010
1000
0010
1000
0010
0001
0010
0100
1000
0001
0100
1000
0100
0010
0001
1000
,
0100
0010
0001
0100
1000
0001
0100
0010
1000
0001
0010
0100
1000
0001
0010
0100
,
0010
0001
0100
0010
1000
0001
0100
0010
1000
0100
0010
0100
1000
0001
0100
1000
,
0010
0100
0001
1000
0010
0100
0010
0100
1000
0010
1000
0010
0001
0100
0001
0100
,
0001
1000
0001
1000
0001
0100
1000
0010
0100
0001
0100
1000
0100
0010
0001
0100
,
0010
0001
0100
1000
0010
0100
0001
0010
1000
0100
0010
0001
0010
0100
0010
0100
,
1000
0100
0001
0010
0100
0010
0001
1000
0100
0010
0001
0010
0100
0001
1000
0010
,
0100
0100
0100
0100
1101
0000
0000
0000
1011
0000
0000
0000
1110
0000
0000
0000
,
0111
2002
3223
2332
,
3223
0330
0111
0000
1110
0000
1101
0000
,
1011
2200
3322
2233
,
3300
0000
0000
0000
0001
0010
0100
1000
0100
0010
0001
0100
0010
1000
0001
0010
,
1000
0001
0100
0010
0001
0020
0000
2030
0000
3002
0000
0203
0000
0320
0000
0032
,
0000
0000
2003
0000
0000
0000
3200
0000
0000
0000
0320
0030
0020
0030
0020
0030
0020
0030
0020
0030
0020
0030
1000
0000
0000
0000
0100
0000
0000
0000
0001
0000
,
0000
0010
0000
0100
0000
1000
0000
0001
0000
0010
0000
0100
0000
2000
0000
3010
,
0000
0100
0000
0001
0100
0020
0000
0000
0030
0000
2000
0000
3200
0000
0000
0300
,
0000
0000
0000
0100
0000
0010
0000
0100
1000
0100
0000
0001
0000
0010
0000
0100
,
0000
0001
0000
0100
0000
2000
0000
0000
0000
3000
0020
0000
0230
0000
0000
0000
,
0000
0300
0000
0110
0000
1010
0000
0101
0000
0011
0000
1100
0000
0110
0000
1001
,
0000
0011
0000
1100
0000
0110
0110
0110
0110
0110
0110
0000
0000
0110
0000
0000
,
0000
0110
0000
0000
0000
0101
0000
0001
0010
0100
1000
0011
0000
1100
0000
0011
,
0000
0202
0000
0303
0000
1001
1001
1001
1001
1001
1001
0000
0000
1001
0000
0000
,
0000
1001
0000
0000
0000
0101
0101
0101
0101
0101
0000
0000
0000
0202
0000
0000
,
0000
0000
0000
0303
0000
1010
1010
1010
1010
1010
1010
1010
0000
1010
0000
0000
,
0000
1010
0000
0000
0000
0011
1000
0100
0010
0001
0000
0100
1000
0100
0000
0101
,
0000
1010
0000
0110
0000
0011
0011
0011
0011
0011
0011
0011
0000
0011
0000
0000
,
0000
0011
0000
0000
0001
0010
0100
1000
0001
0010
0100
1000
0001
0220
0000
0000
,
0000
0330
0000
0000
1001
0000
1001
0000
0100
0000
0011
0000
1100
0000
0001
0000
,
0100
1010
0101
0010
0011
1000
0110
0001
,
0100
1000
0101
0011
0110
0001
1100
0010
,
0001
0000
1010
0000
1010
0000
0100
0000
0011
0000
0100
0000
1010
0000
1000
0011
,
0011
1000
1010
1010
0110
0110
0101
0101
,
1100
0110
0011
0011
1001
1001
0110
0110
,
0110
0110
1100
1100
0101
0101
1010
1010
,
1010
0110
1100
1100
0011
0011
1001
1001
,
1001
1001
1001
1001
0010
0100
0010
0100
1000
0010
1000
0010
0001
0010
0001
0010
,
1000
0001
1000
0001
0100
0010
0001
1000
0010
0100
0001
0010
0100
1000
0001
0010
,
0100
0010
0001
0100
0010
1000
0001
0010
1000
0001
0100
1000
0100
0010
0001
1000
,
0010
0001
0100
0010
1000
0001
0010
0100
0010
0001
0100
1000
0010
0100
1000
0001
,
0010
0100
1000
0100
0001
0010
0001
0010
1000
0100
1000
0100
1000
0010
1000
0010
,
0001
0100
0001
0100
0001
1000
0010
0100
0001
1000
0010
0100
0001
0010
0100
1000
,
0001
0100
1000
0010
0100
0001
0010
0100
1000
0100
0010
0001
0100
1000
0010
0100
,
0001
1000
0010
0100
0001
1000
0010
0001
0010
0100
1000
0001
0100
1000
0100
0010
,
1000
1000
1000
1000
0220
0000
0330
0000
0022
0000
0033
0000
2200
0000
3300
0000
,
2002
0000
3003
0000
2200
0000
0000
0300
3220
0000
0000
0030
0322
0000
0000
0030
,
0223
0000
2332
3003
0220
0330
2020
3030
,
0022
0000
0033
0000
2220
0000
0000
0030
3022
0000
0000
0300
2230
0000
0000
0000
,
0000
0000
0000
0300
3113
0000
0110
0000
1001
0000
1001
0000
0011
0000
0011
0000
,
1100
1100
0011
0001
0011
0010
0110
0100
,
1100
1000
2022
3033
2220
3330
2202
3303
,
0222
0333
1010
1010
0110
0110
0101
0101
,
0101
0000
0000
0000
0001
0010
0100
1000
0010
1000
0100
0001
0010
0100
0010
0001
,
1000
0100
0010
0001
1000
0001
1000
0001
0010
0100
0010
0100
1000
0010
1000
0010
,
1000
0100
1000
0100
0010
1000
0001
0010
0100
0010
0001
1000
0010
0100
0010
0001
,
1000
0010
0100
1000
0001
0100
0001
0100
0010
0100
0010
0100
1000
0001
1000
0001
,
0100
0100
0100
0100
1000
0100
0010
0001
0100
0010
1000
0001
0010
0100
0001
1000
,
0010
0100
0001
0100
1000
1000
1000
1000
0100
0100
0100
0100
0010
0010
0010
0010
,
0001
0001
0001
0001
0100
0010
1000
0001
0010
0100
0001
1000
0100
0001
1000
0010
,
0100
0001
0010
1000
0001
0001
0001
0001
0010
0010
0010
0010
0100
0100
0100
0100
,
1001
1001
1001
1001
0110
0000
0000
0000
0110
0000
0000
0000
2002
0000
0000
0000
,
0000
3003
0000
0000
;
